Skip to main content

The McLovins Live at StrangeCreek Campout, Camp Kee-Wanee on 2013-05-24




*** This is a 24 bit recording, not intended for CD Burning ***

The McLovins
2013-05-24
Wormtown Music Festival
Camp KeeWanee
Greenfield, MA
Main Stage

DPA 4011 > V3 Digital + SBD > DR680 (24/48)
SDHC Card > Sound Forge Pro 10.0 (Mix, Normalize, Fades) > CD Wav (tracking) > TLH > Flac (level 8)
TS at front corner of FOH (ROC)/DIN/approx. 8' high

Taped and Transferred by Brian V.

01. Birthday
02. Tokyo Tea
03. Cohesive
04. Tracy
05. Samson
06. Shivers
07. Break On Through
08. Shakedown Street > Rapper's Delight


Collection TheMcLovins
Band/Artist The McLovins
Date May 24, 2013
Venue StrangeCreek Campout, Camp Kee-Wanee
Location Greenfield, MA

Source DPA 4011 > V3 Digital + SBD > DR680 (24/48)
Lineage SDHC Card > Sound Forge Pro 10.0 (Mix, Normalize, Fades) > CD Wav (tracking) > TLH > Flac (level 8)
Taped by Brian V.
Transferred by Brian V.


Notes

Thanks to everyone that put StrangeCreek together and for the tapers spot.
***Support Bands That Allow Taping/Trading***

shntool output
length expanded size cdr WAVE problems fmt ratio filename
8:44.387 151023404 B cxx -- ---xx flac 0.6619 mclovins2013-05-24s1t01.flac
9:20.640 161464364 B cxx -- ---xx flac 0.6606 mclovins2013-05-24s1t02.flac
11:24.213 197053484 B cxx -- ---xx flac 0.6673 mclovins2013-05-24s1t03.flac
3:50.587 66409004 B cxx -- ---xx flac 0.6719 mclovins2013-05-24s1t04.flac
5:09.267 89068844 B cxx -- ---xx flac 0.6628 mclovins2013-05-24s1t05.flac
8:15.200 142617644 B cxx -- ---xx flac 0.6735 mclovins2013-05-24s1t06.flac
4:39.320 80444204 B cxx -- ---xx flac 0.6313 mclovins2013-05-24s1t07.flac
9:00.912 155782700 B cxx -- ---xx flac 0.6504 mclovins2013-05-24s1t08.flac
60:24.525 1043863648 B 0.6609 (8 files)

Reviews

There are no reviews yet. Be the first one to write a review.
Download Options
658.0M
24BIT FLAC
38.0M
OGG VORBIS
2.5K
TEXT
43.9K
TORRENT
78.6M
VBR M3U
78.6M
VBR MP3
-
VBR ZIP
In Collection
The McLovins
In Collection
Live Music Archive
Uploaded by
Brian V.
on 8/13/2013
Views
15
PEOPLE ALSO FOUND
The McLovins
by The McLovins
36
0
0
Source: DPA 4011 > V3 Digital + SBD > DR680 (24/48)
The McLovins
by The McLovins
26
0
0
Source: DPA 4011 > V3 Digital > R44 (24/96)
The McLovins
by The McLovins
31
0
0
Source: DPA 4011 > V3 Digital + SBD > R44 (24/48)
The McLovins
by The McLovins
121
0
0
Source: DPA 4011 > V3 Digital > R44 (24/96)
The McLovins
by The McLovins
15
0
0
Source: DPA 4011 > V3 Digital + SBD > DR680 (24/48)
The McLovins
by The McLovins
25
0
0
Source: DPA 4011 > V3 Digital + SBD > R44 (24/48)
Conehead Buddha
by Conehead Buddha
55
0
0
Source: AKG c214 > R44 (24/48)
Sun Jones
47
0
0
Source: DPA 4011 > R44 (24/96)
Van Gordon Martin Band
by Van Gordon Martin Band
41
0
0
Source: DPA 4011 > V3 Digital + SBD > Tascam DR680 (24/96)
The Romano Project
by The Romano Project
32
0
0
Source: BSC1 (hypers) > Silver Cables > FR-2LE [BA TMod] (24/48)